Скачать бесплатно Музыка Material - One Down (1982) CD Rip

Скачать: Material - One Down (1982) CD Rip

  Категория: Музыка

Material - One Down (1982) CD Rip



Artist: Material
Title: One Down
Year Of Release: 1982
Label: Restless Records[7 72654-2]
Genre: Soul, Funk
Quality: FLAC (tracks + .cue,log,scans)
Total Time: 46:27
Total Size: 322 MB(+3%)




Tracklist
01 - Take A Chance (feat. Nona Hendryx)
02 - I'm The One
03 - Time Out
04 - Let Me Have It
05 - Come Down
06 - Holding On
07 - Memories (feat. Whitney Houston)
08 - Don't Lose Control
09 - Busting Out (Bonus)
Material - One Down (1982) CD Rip
personnel :
Michael Beinhorn - Prophet-5, Oberheim OBXa, DSX sequencer, Roland TR-808 drum machine, Roland vocoder, tapes, percussion
Bill Laswell - Man Sting Ray bass, Fender Precision bass, effects
Vocals:
Nona Hendryx - vocals ("Take a Chance", "Let Me Have It All", "Bustin' Out")
B.J. Nelson - vocals ("Take a Chance", "Let Me Have It All", "Holding On")
R. Bernard Fowler - vocals ("I'm the One", "Come Down")
Thi-Linh Le - voice ("Time Out")
Noris Night - voice ("Let Me Have It All")
Whitney Houston - vocals ("Memories")
Jean Karakos - voice ("Don't Lose Control")
Musicians:[/center]

Nile Rodgers - guitar ("I'm the One", "Come Down")
Fred Frith - guitar ("Time Out")
Nicky Skopelitis - guitar ("Holding On", "Don't Lose Control")
Ronnie Drayton - guitar ("Let Me Have It All", "Holding On", "Bustin' Out")
J.T. Lewis - drums ("Take a Chance", "Time Out", "Holding On")
Yogi Horton - drums ("Let Me Have It All", "Memories")
Tony Thompson - drums ("I'm the One", "Come Down", "Don't Lose Control")
Fred Maher - drums ("Bustin' Out")
Daniel Ponce - bongos ("I'm the One", "Don't Lose Control")
Nicky Marrero - percussion ("Take a Chance", "Time Out", "Holding On")
Oliver Lake - tenor and alto saxophone ("Come Down")
Archie Shepp - tenor saxophone ("Memories")
Raymond Jones - Yamaha CP-70 B electronic grand piano ("Memories")
Material - One Down (1982) CD Rip
Exact Audio Copy V0.99 prebeta 5 from 4. May 2009
EAC extraction logfile from 18. January 2011, 19:49
Material / One Down
Used drive : PIONEER DVD-RW DVR-115D Adapter: 0 ID: 0
Read mode : Secure
Utilize accurate stream : Yes
Defeat audio cache : Yes
Make use of C2 pointers : No
Read offset correction : 48
Overread into Lead-In and Lead-Out : No
Fill up missing offset samples with silence : Yes
Delete leading and trailing silent blocks : No[/center]

Null samples used in CRC calculations : Yes
Used interface : Installed external ASPI interface
Gap handling : Appended to previous track
Used output format : User Defined Encoder
Selected bitrate : 768 kBit/s
Quality : High
Add ID3 tag : No
Command line compressor : C:\Program Files\Exact Audio Copy\Flac\flac.exe
Additional command line options : -8 -V %s
TOC of the extracted CD
Track | Start | Length | Start sector | End sector
---------------------------------------------------------
1 | 0:00.05 | 4:32.67 | 5 | 20471
2 | 4:32.72 | 5:28.38 | 20472 | 45109
3 | 10:01.35 | 4:58.07 | 45110 | 67466
4 | 14:59.42 | 5:26.08 | 67467 | 91924
5 | 20:25.50 | 4:45.15 | 91925 | 113314
6 | 25:10.65 | 4:46.67 | 113315 | 134831
7 | 29:57.57 | 4:03.55 | 134832 | 153111
8 | 34:01.37 | 4:22.63 | 153112 | 172824
9 | 38:24.25 | 8:03.22 | 172825 | 209071
Track 1
Filename D:\dvdlabtemp\01. Take A Chance.wav
Pre-gap length 0:00:02.05
Peak level 94.6 %
Track quality 100.0 %
Test CRC 7DD2A0B8
Copy CRC 7DD2A0B8
Accurately ripped (confidence 4) [77F52213]
Copy OK
Track 2
Filename D:\dvdlabtemp\02. I'm The One.wav
Pre-gap length 0:00:01.60
Peak level 94.6 %
Track quality 100.0 %
Test CRC DE399907
Copy CRC DE399907
Accurately ripped (confidence 4) [D9F35D57]
Copy OK
Track 3
Filename D:\dvdlabtemp\03. Time Out.wav
Pre-gap length 0:00:02.30
Peak level 94.6 %
Track quality 100.0 %
Test CRC F1D907F8
Copy CRC F1D907F8
Accurately ripped (confidence 4) [5AC42BDB]
Copy OK
Track 4
Filename D:\dvdlabtemp\04. Let Me Have It All.wav
Pre-gap length 0:00:05.12
Peak level 94.6 %
Track quality 99.9 %
Test CRC 5219D778
Copy CRC 5219D778
Accurately ripped (confidence 4) [D4B93CAF]
Copy OK
Track 5
Filename D:\dvdlabtemp\05. Come Down.wav
Pre-gap length 0:00:02.48
Peak level 94.6 %
Track quality 100.0 %
Test CRC 042B62D6
Copy CRC 042B62D6
Accurately ripped (confidence 4) 46AFC8F
Copy OK
Track 6
Filename D:\dvdlabtemp\06. Holding On.wav
Pre-gap length 0:00:01.48
Peak level 94.6 %
Track quality 99.9 %
Test CRC 609D3C7D
Copy CRC 609D3C7D
Accurately ripped (confidence 4) [4B1AC0B3]
Copy OK
Track 7
Filename D:\dvdlabtemp\07. Memories.wav
Pre-gap length 0:00:06.30
Peak level 94.6 %
Track quality 99.9 %
Test CRC DCE96D60
Copy CRC DCE96D60
Accurately ripped (confidence 4) [E16B100F]
Copy OK
Track 8
Filename D:\dvdlabtemp\08. Don't Lose Control.wav
Pre-gap length 0:00:04.52
Peak level 94.6 %
Track quality 100.0 %
Test CRC BE1A55DD
Copy CRC BE1A55DD
Accurately ripped (confidence 4) [A001E042]
Copy OK
Track 9
Filename D:\dvdlabtemp\09. Busting Out.wav
Pre-gap length 0:00:04.15
Peak level 94.6 %
Track quality 100.0 %
Test CRC 2B355F80
Copy CRC 2B355F80
Accurately ripped (confidence 4) [213C7D48]
Copy OK
All tracks accurately ripped
No errors occurred
End of status report



Buy Premium From My Links To Get Resumable Support,Max Speed & Support Me

Download (Uploadgig)
https://uploadgig.com/file/download/9e55a6b85988fc66/ofdzs.Material..One.Down.1982.CD.Rip.rar
Download ( Rapidgator )
https://rapidgator.net/file/1e3682184385903d69427f3b9b9354ee/ofdzs.Material..One.Down.1982.CD.Rip.rar
Download ( NitroFlare )
http://nitroflare.com/view/321CC5995033C4F/ofdzs.Material..One.Down.1982.CD.Rip.rar

Скачать Material - One Down (1982) CD Rip



Информация

Посетители, находящиеся в группе Гости, не могут оставлять комментарии в данной новости.